" />

تحميل فلم Captain Phillips (2013) روابط سريعه ومباشرة

  • Posted on :29 أكتوبر, 2013
  • غير مصنف
  • No comments

=
Captain Phillips (2013) CAM XViD – VAiN
File Size: 1,38 GiB

=

3IkmQxO تحميل فلم Captain Phillips (2013) روابط سريعه ومباشرة

Title: Captain Phillips
Year: 2013
Genre: Biography, Crime, Drama, Thriller
Rating: 7.3 (1,195 votes)
Runtime: 2 h 14 min
Director: Paul Greengrass
Cast: Tom Hanks, Barkhad Abdi, Barkhad Abdirahman, Faysal Ahmed
Plot:

Code:
The true story of Captain Richard Phillips and the 2009 hijacking by Somali pirates of the US-flagged MV Maersk Alabama, the first American cargo ship to be hijacked in two hundred years.

Quote:
General
Complete name : Captain Phillips 2013 CAM XViD – VAiN.avi
Format : AVI
Format/Info : Audio Video Interleave
File size : 1.38 GiB
Duration : 2h 7mn
Overall bit rate : 1 554 Kbps
Writing application : VirtualDubMod 1.5.10.2 (build 2540/release)
Writing library : VirtualDubMod build 2540/release

Video
ID : 0
Format : MPEG-4 Visual
Format profile : Advanced Simple@L5
Format settings, BVOP : 2
Format settings, QPel : No
Format settings, GMC : No warppoints
Format settings, Matrix : Default (MPEG)
Muxing mode : Packed bitstream
Codec ID : XVID
Codec ID/Hint : XviD
Duration : 2h 7mn
Bit rate : 1 414 Kbps
Width : 688 pixels
Height : 352 pixels
Display aspect ratio : 16:10
Original display aspect ratio : 1.955
Frame rate : 29.970 fps
Color space : YUV
Chroma subsampling : 4:2:0
Bit depth : 8 bits
Scan type : Progressive
Compression mode : Lossy
Bits/(Pixel*Frame) : 0.195
Stream size : 1.26 GiB (91%)
Writing library : XviD 64

Audio
ID : 1
Format : MPEG Audio
Format version : Version 1
Format profile : Layer 3
Mode : Joint stereo
Mode extension : MS Stereo
Codec ID : 55
Codec ID/Hint : MP3
Duration : 2h 7mn
Bit rate mode : Constant
Bit rate : 128 Kbps
Channel count : 2 channels
Sampling rate : 48.0 KHz
Compression mode : Lossy
Stream size : 116 MiB (8%)
Alignment : Aligned on interleaves
Interleave, duration : 33 ms (1.00 video frame)
Interleave, preload duration : 504 ms
Writing library : LAME3.99r

Imdb Url:

Movie Trailer:

c1 تحميل فلم Captain Phillips (2013) روابط سريعه ومباشرة

c2 تحميل فلم Captain Phillips (2013) روابط سريعه ومباشرة

c3 تحميل فلم Captain Phillips (2013) روابط سريعه ومباشرة

DOWNLOAD:

DOWNLOAD SINGL LINKS:

2013 2014 2روابط سريعه Movies Movie Series Download HD 720 1080 mediafire ,Rapidshare ,Megaupload ,SendSpace ,Megashares ,MegaShare ,4shared ,

Tags: , , , , , , ,